EMULAB Forum

Please login or register.

Login with username, password and session length
Advanced search  

News:

The new forum is online, hope you enjoy it!

Pages: [1]   Go Down

Author Topic: Estrarre le ROMs dai Naomi GDROM CHD  (Read 6463 times)

Simone

  • Administrator
  • Member
  • *****
  • Karma: 8
  • Offline Offline
  • Posts: 476
    • View Profile
Estrarre le ROMs dai Naomi GDROM CHD
« on: 22 September 2008, 10:31 »

Con questa procedura ? possibile ottenere le ROMS richieste dal MAME estraendole dai relativi CHD.

Programmi utilizzati :
1. chdman.exe (dall'ultima versione di MAME)
2. FireBurner
3. CDmage
4. Un qualsiasi editor di testi


Procedimento:

Iniziamo con l'estrarre l'immagine del CD dal CHD :

Create una nuova cartella e metteteci dentro il programma chdman.exe e il CHD da cui volete estrarre le ROMs.
Aprite una console (finestra dos) e posizionatevi nella cartella appena creata.
Utilizzate il seguente comando:

chdman.exe -extractcd nomechd.chd nomechd.toc nomechd.bin

esempio: chdman.exe -extractcd gdl-0014a.chd gdl-0014a.toc gdl-0014a.bin
Otterrete l'immagine del CD (in questo caso GDROM) utilizzato per creare il CHD.

Create con un qualsiasi editor di testo un nuovo file e chiamatelo gdl-0014a.cue
Copiateci dentro le seguenti righe:

FILE "gdl-0014a.bin" BINARY
  TRACK 01 MODE1/2352
    INDEX 01 00:00:00
  TRACK 02 AUDIO
    PREGAP 00:02:00
    INDEX 01 00:06:00
  TRACK 03 MODE1/2352
    INDEX 01 10:00:00


Chiudete e salvate il documento e copiatelo nella cartella in cui avete estratto l'immagine.

Aprite FireBurner e andate nel menu Options->Configuration->Save Track Options e impostate le opzione cosi:
[attachment=1]
Salvate le opzioni e andate nel menu File->Import Tracks from Cuesheet, navigate fino alla cartella con dentro il file .cue ed apritelo.
Date OK.

Estraete la traccia 03 posizionandovi sopra di essa e cliccando con il tasto destro->Save Track As...
Confermate con Yes e posizionatevi in una cartella di vostra scelta.

Ora con il solito editor di testi create un secondo file .cue con nome di fantasia e copiateci dentro questo :

FILE "gdl-0014a T03 Mode1 2352.iso" BINARY
TRACK 03 MODE1/2352
PREGAP 10:00:00
INDEX 01 00:00:00


Salvatelo nella cartella in cui avete messo la traccia 03 estratta con FireBurner.

Aprite CDmage e trascinateci dentro da Explorer il file .cue appena creato.

Vi apparir? qualcosa di simile a questo:
[attachment=2]
Cliccate con il tasto destro sul file che volete estrarre (corrispondente alla ROM richiesta dal MAME) e selezionate Extract Files...
Impostate il percorso desiderato e cliccate su Extract.

Qualche istante dopo avrete ottenuto la vostra ROM.
« Last Edit: 13 October 2008, 02:08 by Ricky74 »
Logged


zenjiro

  • Member
  • *
  • Karma: 0
  • Offline Offline
  • Posts: 54
    • View Profile
Re: Estrarre le ROMs dai Naomi GDROM CHD
« Reply #1 on: 25 September 2008, 02:23 »

Ciao, come mai questa guida? Ci sono rom estraibili da chd ma difficilmente reperibili in rete?
Logged
?For thirty years,? he said, ?I?ve sailed the seas and seen good and bad, better and worse, fair weather and foul, provisions running out, knives going, and what not. Well, now I tell you, I never seen good come o? goodness yet. Him as strikes first is my fancy; dead men don?t bite; them?s my views?amen, so be it.?

Andrea71

  • Member
  • *
  • Karma: 0
  • Offline Offline
  • Posts: 477
    • View Profile
Re: Estrarre le ROMs dai Naomi GDROM CHD
« Reply #2 on: 25 September 2008, 08:17 »

No le roms si trovano regolarmente... ma magari divertirsi a fare qualcosa invece di trovare la pappa pronta può essere pure interessante.......

Byez
Andrea71
Logged
Web: http://www.mamechannel.it - http://www.emulab.it - Facebook: https://www.facebook.com/mamechannel - Twitter: @mamechannel_it - Google+: +mamechannel

zenjiro

  • Member
  • *
  • Karma: 0
  • Offline Offline
  • Posts: 54
    • View Profile
Re: Estrarre le ROMs dai Naomi GDROM CHD
« Reply #3 on: 25 September 2008, 11:15 »

Ah quello s?, però temevo di doverlo fare con tutti i chd nuovi.  :0093:
Logged
?For thirty years,? he said, ?I?ve sailed the seas and seen good and bad, better and worse, fair weather and foul, provisions running out, knives going, and what not. Well, now I tell you, I never seen good come o? goodness yet. Him as strikes first is my fancy; dead men don?t bite; them?s my views?amen, so be it.?
Pages: [1]   Go Up
 

Page created in 0.18 seconds with 19 queries.